#TITLE:Fruits Basket Opening;
#SUBTITLE:For Fruits Basket;
#ARTIST:Ritsuko Okazaki;
#TITLETRANSLIT:;
#SUBTITLETRANSLIT:;
#ARTISTTRANSLIT:;
#CREDIT:Roy Osbourne;
#BANNER:Fruits_BN.png;
#BACKGROUND:Fruits_BG.png;
#LYRICSPATH:;
#CDTITLE:;
#MUSIC:Fruits Basket Opening.mp3;
#OFFSET:-0.628;
#SAMPLESTART:44.065;
#SAMPLELENGTH:12.000;
#SELECTABLE:YES;
#BPMS:0.000=138.130;
#STOPS:;
#BGCHANGES:0.000=Fruits Basket Opening.avi=1.000=0=0=1,
99999=-nosongbg-=1.000=0=0=0 // don't automatically add -songbackground-
;
// cache tags:
#FIRSTBEAT:0.000;
#LASTBEAT:184.000;
#SONGFILENAME:songs/Pack anime 1/Fruits Basket Opening For Fruits Basket/Fruits Basket Opening.sm;
#HASMUSIC:1;
#HASBANNER:1;
#MUSICLENGTH:82.952;
// end cache tags

//---------------dance-single - Basic----------------
#NOTES:
     dance-single:
     Basic:
     Easy:
     5:
     0.334,0.305,0.012,0.036,0.000,190.000,1.000,3.000,0.000,0.000:
1000
0010
0001
0000
,
1000
0100
0001
0000
,
0000
0000
0000
0000
,
1010
0000
0001
1000
0001
0100
0010
0000
,
1000
0010
1000
0100
,
1000
0200
0000
0000
,
0000
0310
0001
0000
,
1000
0010
1000
0100
,
1000
0100
1000
0010
,
1000
0001
0002
0010
,
0000
0010
0000
0000
,
0003
0100
1000
0000
,
0001
0100
1000
0000
,
1000
0100
0001
0000
,
1000
0000
0001
0000
0100
0000
0010
1000
,
1000
0000
0001
0000
0010
0000
0100
1000
,
1000
0010
0001
0000
,
0002
0010
0000
0003
,
1000
0010
1000
0100
,
1000
0000
0001
0000
0100
0000
0010
1000
,
1000
0000
0001
0000
0010
0000
0100
1000
,
0001
0000
1000
0000
0010
0000
0100
0001
,
1000
0000
0001
0000
0100
0000
0010
1000
,
0001
0000
1000
0000
0100
0000
0010
0001
,
1000
0000
0100
0000
0100
0000
0010
0001
,
1000
0000
0001
0000
0100
0000
0010
1000
,
1000
0010
1000
0100
,
1000
0000
0001
0000
0100
0000
0010
1000
,
1000
0000
0001
0000
0100
0000
0010
1000
,
1000
0000
0001
0000
0010
0000
0100
1000
,
1000
0000
0001
0000
0010
0000
0100
1000
,
0001
0000
1000
0000
0100
0000
0010
0001
,
1000
0010
1000
0100
,
1000
0000
0001
0000
0100
0000
0010
1000
,
0001
0000
1000
0000
0010
0000
0100
0001
,
1000
0000
0100
0000
0100
0000
0010
0001
,
1000
0000
0001
0000
0100
0000
0010
1000
,
1000
0000
0001
0000
0100
0000
0010
1000
,
0001
0000
1000
0000
0100
0000
0010
0001
,
0001
0000
1000
0000
0010
0000
0100
0001
,
0001
0000
1000
0000
0100
0000
0010
0001
,
1000
0000
0001
0000
0100
0000
0010
1000
,
1000
0000
0001
0000
0010
0000
0100
1000
,
1000
0010
0001
0000
,
1000
0100
0001
1000
,
0100
0001
0010
0100
,
1000
0000
0000
0000
;

//---------------dance-single - Standard----------------
#NOTES:
     dance-single:
     Standard:
     Medium:
     7:
     0.427,0.360,0.024,0.036,0.000,242.000,2.000,3.000,0.000,0.000:
0001
1000
0001
0001
,
1000
0001
1000
1000
,
0000
0000
0000
0000
,
0011
0000
1000
0001
0100
0010
1000
1000
,
1000
0000
0100
0000
1000
1000
0100
0010
,
0001
0200
0001
0001
,
1000
0301
1000
1000
,
1000
0000
0100
0000
1000
1000
0100
0010
,
0001
0000
0100
0000
0001
0001
0100
0010
,
1000
0000
0100
0010
2000
0000
0010
0000
,
0001
3000
0001
0001
,
3000
0001
1000
1000
,
0001
1000
0001
0001
,
0001
1000
0001
0001
,
1000
0000
0100
0010
0100
0000
0010
0001
,
0001
0000
0010
0100
0010
0000
0100
1000
,
0001
1000
0001
0001
,
0002
1000
1000
0003
,
1000
0000
0100
0000
1000
1000
0100
0010
,
1000
0000
0100
0010
0100
0000
0010
0001
,
1000
0000
0010
0100
0010
0000
0100
0001
,
0001
0000
0100
0010
0100
0000
0010
1000
,
0001
0000
0100
0010
0100
0000
0010
1000
,
1000
0000
0010
0100
0010
0000
0100
0001
,
0001
0000
0010
0100
0100
0010
0000
1000
,
1000
0000
0100
0010
0100
0000
0010
0001
,
1000
0000
0100
0000
1000
1000
0100
0010
,
1000
0000
0100
0010
0100
0000
0010
0001
,
1000
0000
0010
0100
0010
0000
0100
0001
,
0001
0000
0010
0100
0010
0000
0100
1000
,
0001
0000
0010
0100
0010
0000
0100
1000
,
1000
0000
0010
0100
0010
0000
0100
0001
,
1000
0000
0100
0000
1000
1000
0100
0010
,
1000
0000
0100
0010
0100
0000
0010
0001
,
0001
0000
0010
0100
0010
0000
0100
1000
,
0001
0000
0010
0100
0100
0010
0000
1000
,
1000
0000
0100
0010
0100
0000
0010
0001
,
1000
0000
0100
0010
0100
0000
0010
0001
,
0001
0000
0010
0100
0010
0000
0100
1000
,
1000
0000
0010
0100
0010
0000
0100
0001
,
1000
0000
0100
0010
0100
0000
0010
0001
,
1000
0000
0010
0100
0010
0000
0100
0001
,
0001
0000
0010
0100
0010
0000
0100
1000
,
0001
1000
0001
0001
,
0001
1000
0001
0001
,
1000
0001
0001
1000
,
1001
0000
0000
0000
;

//---------------dance-single - Heavy----------------
#NOTES:
     dance-single:
     Heavy:
     Hard:
     9:
     0.577,0.471,0.024,0.060,0.000,328.000,2.000,5.000,0.000,0.000:
0001
1000
0010
1000
0010
0100
0100
0100
,
1000
0001
0100
0001
0100
0010
0010
0010
,
0020
0000
0000
0030
,
1100
0000
1000
0001
0100
0010
0100
0100
,
0001
0000
0100
0010
0100
0100
0001
0100
,
0001
1000
0020
0000
0030
0000
0100
0000
,
0001
0000
0010
1000
0010
0100
0100
0100
,
0001
0000
0100
0010
0100
0100
0001
0100
,
0001
0000
0100
0010
0100
0100
0001
0100
,
1000
0010
0100
0001
0200
0000
0001
0000
,
0001
0010
0010
0300
,
1100
0001
0100
0001
0100
0010
0010
0010
,
0001
1000
0010
1000
0010
0100
0100
0100
,
0001
1000
0010
1000
0010
0100
0100
0100
,
1000
0010
0100
0001
0100
0010
0001
0100
,
0001
0010
0100
1000
0100
0010
1000
0100
,
0001
1000
0010
1000
0010
0100
0100
0100
,
2000
0010
0010
3000
,
0001
0000
0100
0010
0100
0100
0001
0100
,
1000
0010
0100
0001
0100
0010
0001
0100
,
0001
0010
0100
1000
0100
0010
1000
0100
,
1000
0100
0010
0001
0010
0100
0001
0010
,
1000
0010
0100
0001
0100
0010
0001
0100
,
1000
0100
0010
0001
0010
0100
0001
0010
,
1000
0100
1000
0100
0100
0010
0000
0100
,
1000
0010
0100
0001
0100
0010
0001
0100
,
0001
0000
0100
0010
0100
0100
0001
0100
,
1000
0010
0100
0001
0100
0010
0001
0100
,
1000
0100
0010
0001
0010
0100
0001
0010
,
1000
0100
0010
0001
0010
0100
0001
0010
,
0001
0100
0010
1000
0010
0100
1000
0010
,
0001
0010
0100
1000
0100
0010
1000
0100
,
0001
0000
0100
0010
0100
0100
0001
0100
,
1000
0010
0100
0001
0100
0010
0001
0100
,
1000
0010
0100
0001
0100
0010
0001
0100
,
1000
0100
1000
0100
0100
0010
0000
0100
,
1000
0010
0100
0001
0100
0010
0001
0100
,
1000
0100
0010
0001
0010
0100
0001
0010
,
0001
0100
0010
1000
0010
0100
1000
0010
,
0001
0100
0010
1000
0010
0100
1000
0010
,
1000
0010
0100
0001
0100
0010
0001
0100
,
0001
0100
0010
1000
0010
0100
1000
0010
,
1000
0100
0010
0001
0010
0100
0001
0010
,
0001
1000
0010
1000
0010
0100
0100
0100
,
0001
1000
0100
1000
0100
0010
0010
0010
,
0200
0000
0000
0000
,
0300
0000
0000
0000
;
